走向共和/满清末代王朝 68集全 (海外未删减版) [国语内嵌繁体中字]

随风 国产剧 2021-07-08 10:23:10



image


※※※※※※※ 影片信息 ※※※※※※※

◎片  名 走向共和/满清末代王朝
◎译  名 The Way To The Republic/For the sake of the Republic of China
◎年  代 2003
◎国  家 中国大陆
◎语  言 国语
◎文件格式 X264+AC3
◎视频尺寸 704 x 528
◎文件大小 450M/集 x 68集
◎导  演 张黎
◎主  演   王 冰(饰李鸿章)
                   吕中(饰慈 禧)
                   马少骅(饰孙中山)
                   孙淳(饰袁世凯)
                   李光洁(饰光 绪)
                   徐敏(饰庆 王)
                   孙 宁(饰康有为)
                   张含(饰梁启超)
                   李传缨(饰黄 兴)
                   马仑(饰段祺瑞)
                   乔立生(饰宋教仁)
                   蔡伟(饰黎元洪) 



※※※※※※※ 资料信息 ※※※※※※※

◎简介:

  走向共和集中描绘了中国共产党成立前80年的历史,气势恢弘地再现了甲午海战、戊戌变法、庚子国变、立宪新政、辛亥革命、隆裕退位、缔造共和等重大历史事件,精心刻画了封建统治者丧权辱国、社会战乱不断、国家积弱积贫、人民饥寒交迫等血泪杂陈的屈辱历史卷轴;浓墨重彩地勾勒了晚清封建统治的腐朽以及无数民族精英、仁人志士前赴后继寻找救国救民出路的斗争和探索历程。

  慈禧要修颐和园风光的过她六十岁生日,李鸿章担心日本扩充海军渐成威胁,想加强北洋水师实力,设"海防捐",又找洋人借钱,结果竹篮打水一场空,只得搞了一次令人心酸的演习。甲午海战北洋水师全军覆没,李鸿章受命签定《马关条约》,在日本遇刺大难不死,但从此背着汉奸恶名退出政治舞台。

   甲午兵败之后朝廷决定训练新兵,袁世凯沽名钓誉取得新贵荣禄信任,开始小站练兵,经营政治资本。

  《马关条约》的国耻激起全国义愤,康有为等举子联名上书朝廷,要求维新变法,光绪虽然也想维新自强,慈禧也表示同意,但慈禧一旦发觉康党试图用政变归权于光绪,便轻而易举地将维新血腥镇压并禁锢了光绪。逃亡海外的康梁在檀香山宣传君主立宪,孙中山为首的革命党人驳斥康梁,宣传中国的出路只有革命,推翻清朝封建统治,建立民国才有希望。

  庚子变起,慈禧以为义和团民气可用,一诏战天下,结果八国联军攻进北京,慈禧西逃。为了慈禧回銮的议和,清廷不仅赔款,还将一大批被侵略者列为战犯的王公大臣处死。为慈禧安全回銮袁世凯尽心巴结,学西方组建警察,得到了慈禧的赏识,逐步平步青云。

  屡败于洋人丢尽颜面的慈禧为了挽救危局,也派五大臣出国考察,准备实行君主立宪。袁世凯和权臣庆王爷通过交易结成联盟,借机推行"新官制",获得更大的权力,军机大臣瞿鸿玑为遏制其权力,发动丁未政潮。庆、袁反击成功,终使首辅被罢,从此独断朝纲。

  慈禧死,载沣摄政,罢免袁世凯,亲贵专权,遏压民意。革命党乘机起事,辛亥革命爆发。朝廷只好又起用袁世凯镇压革命军。袁世凯大使其政治手腕,利用朝廷向革命军讨价还价,又用革命军要挟朝廷,最终逼清廷退位。孙中山为了实现共和理想的大局,将大总统之职让给了袁世凯。

  宋教仁遇刺暴露了袁世凯封建军阀政客面目,引发二次革命,革命失败,孙中山再次流亡海外,国会中占多数的国民党议员选举中要罢免袁世凯,袁世凯采用武力威胁和流氓手段演出了一场滑稽的闹剧,并且解散国会,清除国民党议员。袁世凯再无忌惮,索性复辟当皇帝,蔡锷起兵讨袁护法,袁世凯不得人心,众叛亲离,惶惶而死。

  历经三载、投资近亿、全新视角、剧力万钧;本剧是中国影视作品第一次以史诗般的艺术笔角全景式地呈现了中华民族推翻帝制、走向共和这一波澜壮阔的艰难历程,气势恢弘地再现了甲午海战、戊戌变法、庚子国变、立宪新政、辛亥革命、清帝退位、袁氏当国等重大历史事件,在众多事件中,《走向共和》理出了“找出路”、“建立共和制度”这一主线,对历史事件、历史人物进行取舍和强调,对中华民族的历史进程深刻反思。精心刻画了封建统治者丧权辱国、社会战乱不断、国家极弱极贫、人民饥寒交迫等血泪杂陈的屈辱历史卷轴;浓墨重彩地勾勒了晚清封建统治的腐朽以及无数民族精英、仁人志士前赴后继寻找救国救民出路的斗争和探索历程。深入生动地再现了慈禧、光绪、李鸿章、袁世凯、荣禄、康有为、梁启超、孙中山、黄兴、宋教仁等上百名历史风云人物,揭示了走向共和是不可逆转的历史潮流,是屈辱挨打的民族发出的呐喊,是历史必然的选择。

  这段“三千年未有之大变局”是中国近代史中政治、经济、文化以及社会生活最全面、最深刻、最剧烈的转型时期,却始终未能被影视作品客观、真实、全面地反映过,《走向共和》以历史巨片的姿态填补了这一空白。本片以寻找一条顺乎历史发展轨迹、符合历史逻辑、并适合最大多数人民利益和要求的政治出路为主题,重组史学界已近廓清的历史事件,以精湛的电视剧艺术表达为载体,以人文姿态展开对民族生存境遇的深入思考和对未来的美好期持。孙中山、李鸿章、慈禧、袁世凯、光绪、康有为等与以往影视剧中截然不同的众多历史人物将在人文观照的全新视点中被鲜活地还原,他们将以活着的姿态,站着进入人类历史,特别是人类的思想史,并将因此而引发今天的人们全新的震荡和反思。《走向共和》既不复制和重现历史,也不对历史人物再行道德评判;既不是单为某一历史事件洗出一段光彩,也不纯为某一历史人物洗出一种清白。就本剧所承当的历史抱负及其文化意识和艺术追求而言,《走向共和》无疑将是中国电视剧发展史上具有挑战意味、探索精神和文化底蕴的一部大戏。

※※※※※※※ 参数信息 ※※※※※※※

代码
General
Unique ID                                : 233681848207899545069781150223283275784 (0xAFCD7CA4F9DDFA64B917C78252984808)
Complete name                            : F:\走向共和.68集全.2003.国语中字£CMCT暮雨潇潇\走向共和.E16.2003.DVDRip.x264.AC3-CMCT.mkv
Format                                   : Matroska
Format version                           : Version 2
File size                                : 450 MiB
Duration                                 : 45mn 5s
Overall bit rate                         : 1 395 Kbps
Encoded date                             : UTC 2013-06-05 12:28:38
Writing application                      : mkvmerge v5.8.0 ('No Sleep / Pillow') built on Sep  2 2012 15:37:04
Writing library                          : libebml v1.2.3 + libmatroska v1.3.0

Video
ID                                       : 1
Format                                   : AVC
Format/Info                              : Advanced Video Codec
Format profile                           : [email protected]
Format settings, CABAC                   : Yes
Format settings, ReFrames                : 6 frames
Codec ID                                 : V_MPEG4/ISO/AVC
Duration                                 : 45mn 5s
Bit rate                                 : 1 200 Kbps
Width                                    : 704 pixels
Height                                   : 528 pixels
Display aspect ratio                     : 4:3
Frame rate mode                          : Constant
Frame rate                               : 29.970 fps
Color space                              : YUV
Chroma subsampling                       : 4:2:0
Bit depth                                : 8 bits
Scan type                                : Progressive
Bits/(Pixel*Frame)                       : 0.108
Stream size                              : 379 MiB (84%)
Title                                    : Encoded.by.暮雨潇潇@CMCT
Writing library                          : x264 core 130 r2273 b3065e6
Encoding settings                        : cabac=1 / ref=6 / deblock=1:-3:-3 / analyse=0x3:0x133 / me=umh / subme=9 / psy=1 / psy_rd=1.00:0.00 / mixed_ref=1 / me_range=32 / chroma_me=1 / trellis=2 / 8x8dct=1 / cqm=0 / deadzone=21,11 / fast_pskip=0 / chroma_qp_offset=-2 / threads=6 / lookahead_threads=1 / sliced_threads=0 / nr=0 / decimate=1 / interlaced=0 / bluray_compat=0 / constrained_intra=0 / bframes=6 / b_pyramid=2 / b_adapt=2 / b_bias=0 / direct=1 / weightb=1 / open_gop=0 / weightp=2 / keyint=300 / keyint_min=27 / scenecut=40 / intra_refresh=0 / rc_lookahead=50 / rc=2pass / mbtree=1 / bitrate=1200 / ratetol=1.0 / qcomp=0.60 / qpmin=0 / qpmax=69 / qpstep=4 / cplxblur=20.0 / qblur=0.5 / vbv_maxrate=62500 / vbv_bufsize=78125 / nal_hrd=none / ip_ratio=1.40 / aq=1:1.00
Default                                  : Yes
Forced                                   : No

Audio
ID                                       : 2
Format                                   : AC-3
Format/Info                              : Audio Coding 3
Mode extension                           : CM (complete main)
Format settings, Endianness              : Big
Codec ID                                 : A_AC3
Duration                                 : 45mn 5s
Bit rate mode                            : Constant
Bit rate                                 : 192 Kbps
Channel(s)                               : 2 channels
Channel positions                        : Front: L R
Sampling rate                            : 48.0 KHz
Bit depth                                : 16 bits
Compression mode                         : Lossy
Delay relative to video                  : 212ms
Stream size                              : 61.9 MiB (14%)
Title                                    : 国语.AC3.192kpbs.2channels
Default                                  : Yes
Forced                                   : No




※※※※※※※ 截图信息 ※※※※※※※(点击可以看大图)

image
image image
image image
image image
image image
链接: https://pan.baidu.com/s/1NIS4EywfcgzrajZ2L-1jfg密码: hcf4

如果下载链接失效或者需要密码,请点击。下载之后,如果格式是PDF或者TS1、mp41等等的后缀,请把格式修改MKV即可观看,如果是.zip或者.rar,请下载到电脑上解压之后观看。

另外单独分享一个针对百度网盘下载不限速的破解版软件,如有需要请单独下载:

如果电影显示过期或者不能下载,请直接扫描上方公众号关注之后,发送想要索取的资源名即可。因平时上班,不能及时回复,但我看到之后一定会第一时间回复你!