黑色止血钳 第一集 主演:二宫和也\竹内凉真\葵若菜 [日语/繁体字幕]

随风 日韩剧 2021-05-03 16:23:25

image

◎译  名 黑色止血钳
◎片  名 ブラックぺアン
◎年  代 2018
◎产  地 日本
◎类  别 剧情/悬疑
◎语  言 日语
◎上映日期 2018-04-22(日本)
◎豆瓣评分 8.9/10 from 1,614 users
◎豆瓣链接 https://movie.douban.com/subject/30135594/
◎片  长 第1集 70分钟
◎导  演 福泽克雄 Katsuo Fukuzawa / 田中健太 Kenta Tanaka / 渡濑晓彦
◎主  演 二宫和也 Kazunari Ninomiya
      竹内凉真 Ryoma Takeuchi
      葵若菜 Wakana Aoi
      倍赏美津子 Mitsuko Baisho
      小泉孝太郎 Kôtarô Koizumi
      内野圣阳 Masaaki Uchino

◎简  介

  拥有天才缝合技术的外科医生渡海征司郎(二宫和也饰)供职于东城大学医学部附属医院,但对升迁没有兴趣,是一个独来独往的人。他既是个以手术成功率百分百而自豪的孤高天才,又因为傲慢的个性及言行跟周围的人发生摩擦。同事们评价他是“让患者活,让医生死”的“手术室恶魔”。某天,毕业于其他大学的新医生带来了新型手术用医疗器具,据称这种工具能让外科医生的技术变得没那么重要。医院打算借助这种手术工具开展新型外科手术。渡海则对这种医疗器具产生疑问,进而展开斗争。

代码General
Complete name                  : [SUBPIG][Black Pean ep01].mp4
Format                         : MPEG-4
Format profile                 : Base Media
Codec ID                       : isom (isom)
File size                      : 951 MiB
Duration                       : 1 h 9 min
Overall bit rate mode          : Variable
Overall bit rate               : 1 925 kb/s
Encoded date                   : UTC 2018-04-23 09:13:42
Tagged date                    : UTC 2018-04-23 09:13:42

Video
ID                             : 1
Format                         : AVC
Format/Info                    : Advanced Video Codec
Format profile                 : [email protected]
Format settings                : CABAC / 4 Ref Frames
Format settings, CABAC         : Yes
Format settings, ReFrames      : 4 frames
Codec ID                       : avc1
Codec ID/Info                  : Advanced Video Coding
Duration                       : 1 h 9 min
Bit rate                       : 1 800 kb/s
Maximum bit rate               : 11.7 Mb/s
Width                          : 1 280 pixels
Height                         : 720 pixels
Display aspect ratio           : 16:9
Frame rate mode                : Constant
Frame rate                     : 29.970 (30000/1001) FPS
Color space                    : YUV
Chroma subsampling             : 4:2:0
Bit depth                      : 8 bits
Scan type                      : Progressive
Bits/(Pixel*Frame)             : 0.065
Stream size                    : 886 MiB (93%)
Writing library                : x264 core 148 r2638 7599210
Encoding settings              : cabac=1 / ref=3 / deblock=1:0:0 / analyse=0x3:0x113 / me=hex / subme=7 / psy=1 / psy_rd=1.00:0.00 / mixed_ref=1 / me_range=16 / chroma_me=1 / trellis=1 / 8x8dct=1 / cqm=0 / deadzone=21,11 / fast_pskip=1 / chroma_qp_offset=-2 / threads=12 / lookahead_threads=2 / sliced_threads=0 / nr=0 / decimate=1 / interlaced=0 / bluray_compat=0 / constrained_intra=0 / bframes=3 / b_pyramid=2 / b_adapt=1 / b_bias=0 / direct=1 / weightb=1 / open_gop=0 / weightp=2 / keyint=250 / keyint_min=25 / scenecut=40 / intra_refresh=0 / rc_lookahead=40 / rc=abr / mbtree=1 / bitrate=1800 / ratetol=1.0 / qcomp=0.60 / qpmin=0 / qpmax=69 / qpstep=4 / ip_ratio=1.40 / aq=1:1.00
Encoded date                   : UTC 2018-04-23 09:12:08
Tagged date                    : UTC 2018-04-23 09:13:47

Audio
ID                             : 2
Format                         : MPEG Audio
Format version                 : Version 1
Format profile                 : Layer 3
Format settings                : Joint stereo / MS Stereo
Codec ID                       : .mp3
Duration                       : 1 h 9 min
Bit rate mode                  : Variable
Bit rate                       : 128 kb/s
Maximum bit rate               : 131 kb/s
Channel(s)                     : 2 channels
Sampling rate                  : 48.0 kHz
Compression mode               : Lossy
Stream size                    : 63.2 MiB (7%)
Title                          : [email protected]
Writing library                : LAME3.99.5
Encoded date                   : UTC 2018-04-23 09:13:45
Tagged date                    : UTC 2018-04-23 09:13:47



链接: https://pan.baidu.com/s/1GVMvANSgxD0_9vo1qC0WDA密码: ayrx

如果下载链接失效或者需要密码,请点击。下载之后,如果格式是PDF或者TS1、mp41等等的后缀,请把格式修改MKV即可观看,如果是.zip或者.rar,请下载到电脑上解压之后观看。

另外单独分享一个针对百度网盘下载不限速的破解版软件,如有需要请单独下载:

如果电影显示过期或者不能下载,请直接扫描上方公众号关注之后,发送想要索取的资源名即可。因平时上班,不能及时回复,但我看到之后一定会第一时间回复你!