鹤啸九天.新加坡.1994.全30集.国语无字.主演.曹国辉.陈泰鸣.潘玲玲.陈莉萍

随风 新马泰剧 2021-04-03 11:27:29

image

image



基本信息

中 文 名:鹤啸九天.新加坡.1994.全30集.国语无字.主演.曹国辉.陈泰鸣.潘玲玲.陈莉萍
英 文 名:Web.Of.Deceit.Singapore.Ep01-30.x264.AAC
出品时间:1994
制片地区:新加坡
首播时间:1994年
导    演:高建国
编    剧:李维健
主    演:曹国辉,陈泰鸣,潘玲玲,陈莉萍,陈天文 ,林明哲,叶素梅,淳于珊珊
集    数:30集
每集长度:37分钟
类    型:爱情,江湖,动作,古装
上映时间:1994年
制 片 人:刘贵珍
监    制:胡鹤译
主 题 曲:侠骨豪情
片 尾 曲:谢谢情人

剧情简介

  紫鹤为了心爱的人萧瑶放弃了皇叔爵位,欲与瑶归隐泉林,不料,鹤的师父临死前却将武当掌门之位传给了鹤,瑶认为鹤骗了她的感情,发誓要杀鹤,于是创建了白莲教,并约鹤五年后决战。
  沈岚和萧湘同时怀上了慕容世家长子金鹏的骨肉,固执的太君怕有辱门风,逼得沈岚跳崖自尽。十八年后,岚的儿子云飞长大成人,与朱雀之女如烟成了好朋友;湘的儿子慕容天峰偶遇如烟,俩人相互倾慕。镇南王勾结武林各大门派,一心想称霸武林,夺取王位。偶然的机会,镇南王的女儿还珠爱上了云飞,从此与他共生死。鹤与瑶的五年之期到了,仍然深爱着萧瑶的鹤误将瑶打下山崖,自己深受重伤,伤心欲绝之际被一心想夺掌门之位的朱雀打下山崖,神秘失踪。
  本片有五大高手:白莲教主萧瑶、男主角洛云飞、武当掌门朱子鹤、大太监曹公公、慕容山庄少庄主慕容天峰。 起初,朱子鹤是天下第一高手,萧瑶原为他的老婆,因朱子鹤不愿舍弃武当派,出任武当掌门,与她分手,她一怒创立白莲教,并伺机报复。(其实萧瑶从来就是个心狠手辣、占有欲极强的女人,并不是二人分手后才变成这样的,朱子鹤喜欢错了人) 二人两次决斗,第一次萧瑶落败,朱子鹤不忍杀她。第二次,实际上萧瑶武功在朱子鹤之上,但最终二败俱伤。后来,萧瑶以情动之,朱子鹤将自己绝世武功“鹤啸九天”传授给萧瑶,萧瑶以“以彼之道,还治彼身”武功,用学来的鹤啸九天杀死了朱子鹤。这时,萧瑶已经是天下第一高手了。 萧瑶和皇上上了床,这一上不要紧,白莲教就因此成为钦封的“ 圣教”。祸乱宫廷,控制皇上,皇上后悔莫及。奇怪的是属下建议萧瑶“效法武则天,面首三千”,本就不是三贞九烈的萧瑶竟然连斥“荒唐”,大概是嫌部下说话太不含蓄了。 洛云飞由玄武道长养大,玄武早年是洛云飞父亲的情敌,本性不坏,将洛云飞抚养成人,但心存芥蒂,不愿教授洛云飞武功。洛云飞的真正授业恩师是师祖朱子鹤,他也是武当派唯一得到鹤啸九天真传之人。 玄武道长执掌的武当派被萧瑶灭了门。洛云飞武功大进,将鹤啸九天练至极至,甚至超过了当年的朱子鹤,与萧瑶难分上下。 洛云飞与慕容天峰联手(洛云飞为主),杀死萧瑶。为江湖,也为朝廷(曹公公)除了一大害。 然后,热衷官场、已被封候的暮容天峰在爱侣柳如烟(尚未成亲)的劝说下,向皇上请求辞官还乡,皇上兔死狗烹,又怒他不愿继续为官,遂以毒酒将他毒死,天峰死在柳如烟怀中。 洛云飞与还珠成亲,重建武当。柳如烟抱着天峰的骨灰上武当,三人目光相对。


General
Unique ID                      : 203577778153349181552227899149191653499 (0x9927A765B5FFC04B9BF5DAD493EEA87B)
Complete name                  : F:\Multimedia\CMCT-PT\视频\鹤啸九天.1994.全30集.国语无字\鹤啸九天.1994.Ep01.x164.AAC.mkv
Format                         : Matroska
Format version                 : Version 4 / Version 2
File size                      : 497 MiB
Duration                       : 39 min 8 s
Overall bit rate               : 1 774 kb/s
Encoded date                   : UTC 2017-02-27 12:48:28
Writing application            : mkvmerge v7.9.0 ('Birds') 64bit
Writing library                : libebml v1.3.1 + libmatroska v1.4.2

Video
ID                             : 1
Format                         : AVC
Format/Info                    : Advanced Video Codec
Format profile                 : [email protected]
Format settings, CABAC         : Yes
Format settings, ReFrames      : 4 frames
Codec ID                       : V_MPEG4/ISO/AVC
Duration                       : 39 min 8 s
Bit rate                       : 1 734 kb/s
Width                          : 768 pixels
Height                         : 576 pixels
Display aspect ratio           : 4:3
Frame rate mode                : Constant
Frame rate                     : 25.000 FPS
Color space                    : YUV
Chroma subsampling             : 4:2:0
Bit depth                      : 8 bits
Scan type                      : Progressive
Bits/(Pixel*Frame)             : 0.157
Stream size                    : 485 MiB (98%)
Writing library                : x264 core 146 r2538kMod 121396c
Encoding settings              : cabac=1 / ref=3 / deblock=1:0:0 / analyse=0x3:0x113 / me=hex / subme=7 / psy=1 / fade_compensate=0.00 / psy_rd=1.00:0.00 / mixed_ref=1 / me_range=16 / chroma_me=1 / trellis=1 / 8x8dct=1 / cqm=0 / deadzone=21,11 / fast_pskip=1 / chroma_qp_offset=-2 / threads=7 / lookahead_threads=1 / sliced_threads=0 / nr=0 / decimate=1 / interlaced=0 / bluray_compat=0 / constrained_intra=0 / fgo=0 / bframes=3 / b_pyramid=2 / b_adapt=1 / b_bias=0 / direct=1 / weightb=1 / open_gop=0 / weightp=2 / keyint=250 / keyint_min=25 / scenecut=40 / intra_refresh=0 / rc_lookahead=40 / rc=2pass / mbtree=1 / bitrate=1734 / ratetol=1.0 / qcomp=0.60 / qpmin=0 / qpmax=69 / qpstep=4 / cplxblur=20.0 / qblur=0.5 / ip_ratio=1.40 / aq=1:1.00
Default                        : Yes
Forced                         : No

Audio
ID                             : 2
Format                         : AAC
Format/Info                    : Advanced Audio Codec
Format profile                 : LC
Codec ID                       : A_AAC
Duration                       : 39 min 8 s
Bit rate                       : 39.6 kb/s
Channel(s)                     : 2 channels
Channel positions              : Front: L R
Sampling rate                  : 44.1 kHz
Frame rate                     : 43.066 FPS (1024 spf)
Compression mode               : Lossy
Delay relative to video        : 10 ms
Stream size                    : 11.1 MiB (2%)
Default                        : Yes
Forced                         : No
链接: https://pan.baidu.com/s/1uk1gdDjau816uC4H5LQlNg密码: jwkj

如果下载链接失效或者需要密码,请点击。下载之后,如果格式是PDF或者TS1、mp41等等的后缀,请把格式修改MKV即可观看,如果是.zip或者.rar,请下载到电脑上解压之后观看。

另外单独分享一个针对百度网盘下载不限速的破解版软件,如有需要请单独下载:

如果电影显示过期或者不能下载,请直接扫描上方公众号关注之后,发送想要索取的资源名即可。因平时上班,不能及时回复,但我看到之后一定会第一时间回复你!