泰剧:荷尔蒙 第一季全13集 *豆瓣高口碑佳作 内封网飞中字

随风 新马泰剧 2021-04-07 12:48:20



◎译  名 荷尔蒙 / Hormones: The Confusing Teens / Wai Waa Woon / 荷尔蒙电视剧版 / 贺尔蒙:混乱十代(台)
◎片  名 วัยว้าวุ่น
◎年  代 2013
◎产  地 泰国
◎类  别 剧情 / 喜剧 / 爱情 / 同性
◎语  言 泰语
◎上映日期 2013-05-18(泰国)
◎IMDb评分 8.0/10 from 385 users
◎IMDb链接 http://www.imdb.com/title/tt3199398
◎豆瓣评分 8.3/10 from 3492 users
◎豆瓣链接 https://movie.douban.com/subject/24736540/
◎集  数 13
◎片  长 45分钟
◎导  演 松耀司·舒克马卡纳尼 Songyos Sugmakanan
◎编  剧 松耀司·舒克马卡纳尼 Songyos Sugmakanan
◎主  演 帕查拉·奇拉锡瓦特  Pachara Chirathivat
      朱塔吾·帕塔拉刚普 Chutavuth Pattarakampol
      司拉恰奇·齐恩萨温 Sirachuch Chienthaworn
      安苏玛琳·瑟拉帕萨默莎 Ungsumalynn Sirapatsakmetha
      Suthatta Udomsilp
      Tou Sedthawut Anusit
      Tor Thanapob Leeratanakachorn
      Kao Supassra Thanachat
      Sananthachat Thanapatpisal
◎简  介  

  长相帅气、成绩优异的Win(帕查拉·奇拉锡瓦特 Pachara Chirathivat 饰)是学校里的万人迷,开学第一天他就向老师提出一个问题:为什么要穿校服?第二天,他就穿着便服上学,公然对抗校方。此举引来学生们的响应,事件虽然很快被解决了,但Win无疑是公认的学生领袖。然而有一个人始终不会附和他,那就是学校里的另一个名人——完美女孩Kwan(安苏玛琳·瑟拉帕萨默莎 Ungsumalynn Sirapatsakmetha 饰),她长得漂亮头脑又好,是老师们喜爱的好好学生。这样的两个青春男女,会擦出什么样的火花?
  与此同时,吉他少年Tar加入了学校乐队,他喜欢的女孩Toei开始遇到了烦恼;萨克斯风手Phu和长笛手Tee之间的同性恋情悄悄酝酿;“坏学生”Phai无意间撞破了校园“荡妇”Sprite的秘密,他们随之有了意想不到的交集……这样一群正值青春、肆意释放荷尔蒙的少男少女,开始了属于他们的成长故事。


代码General
Unique ID                      : 265374326872450295621612242586440622810 (0xC7A53C7B8118D4142A6439D8D31CE2DA)
Complete name                  : G:\Hormones - S1 - English subtitles [1080p][ATTKC]\Hormones - S01E01 - English subtitles [1080p][ATTKC][6773F13D].mkv
Format                         : Matroska
Format version                 : Version 4 / Version 2
File size                      : 2.01 GiB
Duration                       : 45mn 33s
Overall bit rate mode          : Variable
Overall bit rate               : 6 308 Kbps
Encoded date                   : UTC 2018-06-13 17:57:49
Writing application            : mkvmerge v21.0.0 ('Tardigrades Will Inherit The Earth') 32-bit
Writing library                : libebml v1.3.5 + libmatroska v1.4.8
DURATION                       : 00:43:41.360000000
NUMBER_OF_FRAMES               : 695
NUMBER_OF_BYTES                : 19595
_STATISTICS_WRITING_APP        : mkvmerge v21.0.0 ('Tardigrades Will Inherit The Earth') 32-bit
_STATISTICS_WRITING_DATE_UTC   : 2018-06-13 17:57:49
_STATISTICS_TAGS               : BPS DURATION NUMBER_OF_FRAMES NUMBER_OF_BYTES

Video
ID                             : 1
Format                         : AVC
Format/Info                    : Advanced Video Codec
Format profile                 : [email protected]
Format settings, CABAC         : Yes
Format settings, ReFrames      : 3 frames
Codec ID                       : V_MPEG4/ISO/AVC
Duration                       : 45mn 33s
Bit rate mode                  : Variable
Bit rate                       : 6 190 Kbps
Maximum bit rate               : 9 285 Kbps
Width                          : 1 920 pixels
Height                         : 1 080 pixels
Display aspect ratio           : 16:9
Frame rate mode                : Constant
Frame rate                     : 25.000 fps
Color space                    : YUV
Chroma subsampling             : 4:2:0
Bit depth                      : 8 bits
Scan type                      : Progressive
Bits/(Pixel*Frame)             : 0.119
Stream size                    : 1.93 GiB (96%)
Writing library                : x264 core 148 r2715 7e75228

Default                        : Yes
Forced                         : No

Audio
ID                             : 2
Format                         : E-AC-3
Format/Info                    : Audio Coding 3
Format settings, Endianness    : Big
Codec ID                       : A_EAC3
Duration                       : 45mn 33s
Bit rate mode                  : Constant
Bit rate                       : 128 Kbps
Channel(s)                     : 2 channels
Channel positions              : Front: L R
Sampling rate                  : 48.0 KHz
Compression mode               : Lossy
Stream size                    : 41.7 MiB (2%)
Title                          : Thai
Language                       : Thai
Default                        : No
Forced                         : No

Text #1
ID                             : 3
Format                         : UTF-8
Codec ID                       : S_TEXT/UTF8
Codec ID/Info                  : UTF-8 Plain Text
Title                          : English [Full]
Language                       : English
Default                        : No
Forced                         : No

Text #2
ID                             : 4
Format                         : UTF-8
Codec ID                       : S_TEXT/UTF8
Codec ID/Info                  : UTF-8 Plain Text
Title                          : Bulgarian [Full]
Language                       : Bulgarian
Default                        : No
Forced                         : No

Text #3
ID                             : 5
Format                         : UTF-8
Codec ID                       : S_TEXT/UTF8
Codec ID/Info                  : UTF-8 Plain Text
Title                          : Thai [Forced]
Language                       : Thai
Default                        : No
Forced                         : Yes

Text #4
ID                             : 6
Format                         : UTF-8
Codec ID                       : S_TEXT/UTF8
Codec ID/Info                  : UTF-8 Plain Text
Title                          : Thai [SDH]
Language                       : Thai
Default                        : No
Forced                         : No

Text #5
ID                             : 7
Format                         : UTF-8
Codec ID                       : S_TEXT/UTF8
Codec ID/Info                  : UTF-8 Plain Text
Title                          : Chinese (Simplified) [Full]
Language                       : Chinese
Default                        : No
Forced                         : No

Text #6
ID                             : 8
Format                         : UTF-8
Codec ID                       : S_TEXT/UTF8
Codec ID/Info                  : UTF-8 Plain Text
Title                          : Chinese (Traditional) [Full]
Language                       : Chinese
Default                        : No
Forced                         : No



链接: https://pan.baidu.com/s/1OZgyGv8VIWb4QpQpNOOnTg密码: c5ha

如果下载链接失效或者需要密码,请点击。下载之后,如果格式是PDF或者TS1、mp41等等的后缀,请把格式修改MKV即可观看,如果是.zip或者.rar,请下载到电脑上解压之后观看。

另外单独分享一个针对百度网盘下载不限速的破解版软件,如有需要请单独下载:

如果电影显示过期或者不能下载,请直接扫描上方公众号关注之后,发送想要索取的资源名即可。因平时上班,不能及时回复,但我看到之后一定会第一时间回复你!